Звук с дисков из бокс сетов хуже,чем с дисков приобретенных одиночно?

хочу собрать дискографии любимых групп и хочется купить сразу бокс сет с полной дискографией (на амазоне),но слышал мнения,что звучания на этих дисках проигрывает дискам,приобретенным отдельно. Что вы скажите?

50 дБ +

Ответы

#

Если брать во внимание всевозможные подарочные наборы по 500 - 900 руб. за полсотни CD, то да, качества записи там нет. А если рассматривать специально выпущенные box-set для коллекционеров, то запись там ничем не хуже отдельных CD. Например, я сравнивал диски из бокс-сета Boney M (5 CD box-set Legasy) и они сильно уступали по качеству отдельно выпущенным дискам. А вот набор ABBA (8 SHM-CD) или Norah Jones (6 SACD box-set) играют великолепно.


- 64.77 дБ +
#

К полным дискографиям в "одном флаконе" изданным нужно осторожно относится, а не только к подарочным "три или пять в одном" Они точно не звучат по сравнению с подлинниками.

Выше пример: Я повелся купить это в Риме (не жалею правда), ибо подкупало, что 4 редких издания на CD за 9 евро. Издатель - Real Gone Music. На сайте пишут, что 2 паренька из Охайо - Gordon Anderson and Gabby Castellana создали "независьку" по переизданиям ))) Иногда выясняется, что кто-то сделал новый ремастер с чего-то (за 10$)... Но тем не менее, за 2 euro редкого Баррела или Брауна поиметь можно. Но с подлинниками никакого сравнения.

- 61.76 дБ +
#

я заказал с амазона вот такой бокс сет https://www.amazon.co.uk/Compl...

- 50 дБ +
⇡ в ответ @Tempest #

у меня тоже такой в пути!) и ещё много чего (раньше диски забросил, сейчас навёрстываю)...

Взял на пробу даже пару китайскийх бокс сетов, хочу попробовать что это и с чем его едят! Встречал на просторах инета сравнение, что например китайский бокс сет Металлики абсолютно ничем не отличается от оригинала, ни одним битом, ни одним пиком (сравнение проводилось и по уровням и по всяким разным параметрам)!

Вот решил рискнуть!

- 50 дБ +
#
звучания на этих дисках проигрывает дискам,приобретенным отдельно.

Абсолютно не всегда! Есть бокс сеты с уникальными записями... например бокс сет the doors perception (все никак блин не куплю) чуть ли единственный, который содержит нормальную, как задумано музыкантами, запись первого альбома!!! далее выдержка из википедии -

The Doorsангл. — «Двери») из комплекта дисков Perception — мультимедийная ремастированная версия оригинального альбома группы 1967 года, состоящая из двух дисков — CD и DVD.
Данная версия альбома отличается от существовавшего уже 40 лет оригинала. По несовпадению аккордов и времени проигрывания песен на альбоме и синглах было установлено, что общеизвестный оригинал записан на замедленной скорости с заниженными «бемольными тонами». Брюс Ботник, в статье к буклету альбома объясняет это тем, что при перезаписи оригинального материала на Электре произошёл технический сбой — либо источник записи мотал плёнку медленнее, либо записывающая аппаратура крутила плёнку быстрее.
С помощью ремастеринга удалось вернуть альбому реальную скорость (теперь он звучит быстрее, в некоторых случаях это существенно заметно) и правильные тона (приблизительно на ½ тона выше). Вследствие произведённых операций пластинка приобрела иное звучание: теперь слышно Рея и Робби в тех местах, где раньше их слышно не было.
В композиции «Break on Through» смикширована концовка «she get high», взятая из нестудийного выступления группы. Первоначально этого выражение в песне не было по соображением цензуры, но теперь на её прибавлении настояла сама записывающая компания. В композиции «The End» употребляется также изначально отсутствовавшее fuck, а также отчётливые возгласы «Kill, kill, kill…». Именно эту версию песни можно слышать в обновлённой режиссёрской версии фильма Апокалипсис сегодня.
Буклет к альбому содержит две статьи, фотографии и тексты всех песен. На DVD-диске представлены различные многоканальные миксы альбома, а также видео и фотоматериалы.


Так что бокс боксу рознь, ну и как и диски в принципе тоже!)

- 63.98 дБ +
#

В первую очередь нужно различать бюджетные варианты и все остальное. Бюджетка (пять по цене одного, супер-цена и прочее) могут быть и паршивыми, а могут и ничем не отличаться от одиночных изданий, кроме как упаковкой. Остальное, даже и коллекционное, лучше изучать перед покупкой, смотреть отзывы, изучать, где все это издается, кто готовил издание. Доступной информации сейчас много.

- 64.77 дБ +
#

Главное не нарваться на ремастеринг с загубленным динамическим диапазоном.

как пример King Diamond: 2013 - The Complete Roadrunner Collection 1986-1990


Analyzed: King Diamond / Fatal Portrait
--------------------------------------------------------------------------------

DR Peak RMS Duration Track
--------------------------------------------------------------------------------
DR9 0.00 dB -10.18 dB 6:42 01-The Candle
DR11 0.00 dB -12.36 dB 5:18 02-The Jonah
DR9 0.00 dB -10.23 dB 5:09 03-The Portrait
DR9 0.00 dB -10.01 dB 3:10 04-Dressed In White
DR9 0.00 dB -10.57 dB 4:17 05-Charon
DR9 0.00 dB -10.09 dB 3:36 06-Lurking In The Dark
DR11 0.00 dB -11.61 dB 4:16 07-Halloween
DR12 0.00 dB -14.25 dB 1:32 08-Voices From The Past
DR8 0.00 dB -9.66 dB 3:54 09-Haunted



Тогда как в оригинале [Roadrunner, RR 34 9721, Germany] вот такая картина:

--------------------------------------------------------------------------------

DR Peak RMS Duration Track
--------------------------------------------------------------------------------
DR13 -1.08 dB -15.52 dB 6:40 01-The Candle
DR15 -1.38 dB -17.74 dB 5:16 02-The Jonah
DR13 -0.93 dB -15.61 dB 5:08 03-The Portrait
DR12 -1.67 dB -15.29 dB 3:08 04-Dressed In White
DR13 -1.47 dB -15.98 dB 4:16 05-Charon
DR13 0.00 dB -15.44 dB 3:35 06-Lurking In The Dark
DR15 -0.80 dB -16.98 dB 4:13 07-Halloween
DR16 -0.48 dB -19.59 dB 1:31 08-Voices From The Past
DR13 -0.39 dB -15.01 dB 3:54 09-Haunted
DR14 -0.04 dB -15.00 dB 4:13 10-The Lake

- 50 дБ +
⇡ в ответ @ilan #

Это все индивидуально надо изучать - хватает изданий и хуже и лучше оригинала. И это совершенно одинаково относится и к отдельным дискам и к боксам. И не только динамический диапазон можно прибить в процессе.

- 50 дБ +