Joe Satriani «Shockwave Supernova»: сделаем винил великим (опять)

Joe Satriani «Shockwave Supernova»: сделаем винил великим (опять)

Последний альбом Джо Сатриани (Joe Satriani) любопытно изучить даже не фанатам музыканта, поскольку в нем, как в зеркале отразились все хвори современного саунд-продюссирования.

Обсуждение музыкальной части «Shockwave Supernova» я оставляю специалистам творчества этого виртуоза, к которым себя не отношу. Что же касается мастеринга — перед нами несколько воплощений базового подхода. Начнем с самого очевидного — классического компакт-диска.

Судя по спектру видно, для изготовления CD использовался высокодискретный мастер. Правда, во избежание искажений на границе возможностей компакт-диска, при понижении дискретности используются фильтры, а здесь просто отрезали как кусок масла.

Динамический диапазон в баллах не выглядит так страшно, как на картинке. 8-9 DR — это еще по-божески. И все таки электрогитара — это не фортепиано и не арфа, у нее сигнал «некрасивый». Но и компрессию все равно делали, от этого никуда не деться. Клиппинга нет, издатели предусмотрительно остановились в децибеле от нуля, и за это спасибо.

DR Peak RMS Duration Track

--------------------------------------------------------------------------------

DR8 -1.08 dB -10.72 dB 3:53 01-Shockwave Supernova

DR9 -1.15 dB -11.59 dB 4:16 02-Lost In A Memory

DR10 -1.04 dB -12.88 dB 3:40 03-Crazy Joey

DR9 -1.00 dB -11.76 dB 4:16 04-In My Pocket

DR8 -1.09 dB -10.27 dB 5:26 05-On Peregrine Wings

DR8 -1.11 dB -10.60 dB 5:06 06-Cataclysmic

DR9 -1.08 dB -11.74 dB 3:22 07-San Francisco Blue

DR9 -1.05 dB -11.92 dB 4:26 08-Keep On Movin'

DR8 -1.09 dB -10.88 dB 4:06 09-All Of My Life

DR9 -1.06 dB -11.03 dB 4:03 10-A Phase I'm Going Through

DR9 -1.10 dB -11.12 dB 4:04 11-Scarborough Stomp

DR9 -3.34 dB -14.76 dB 1:48 12-Butterfly And Zebra

DR9 -1.08 dB -11.63 dB 5:11 13-If There Is No Heaven

DR9 -1.00 dB -11.58 dB 4:48 14-Stars Race Across The Sky

DR8 -0.91 dB -9.67 dB 5:48 15-Goodbye Supernova

--------------------------------------------------------------------------------

В веб-релизе уровни чуть-чуть поднялись, но в целом вся картина осталась прежней.

Analyzed: Joe Satriani / Shockwave Supernova

--------------------------------------------------------------------------------

DR Peak RMS Duration Track

--------------------------------------------------------------------------------

DR8 -0.90 dB -10.47 dB 3:50 01-Shockwave Supernova

DR9 -0.94 dB -11.34 dB 4:13 02-Lost in a Memory

DR10 -0.89 dB -12.63 dB 3:37 03-Crazy Joey

DR9 -0.88 dB -11.51 dB 4:13 04-In My Pocket

DR8 -0.87 dB -10.03 dB 5:23 05-On Peregrine Wings

DR8 -0.87 dB -10.36 dB 5:03 06-Cataclysmic

DR9 -0.90 dB -11.47 dB 3:19 07-San Francisco Blue

DR9 -0.88 dB -11.67 dB 4:23 08-Keep on Movin'

DR8 -0.91 dB -10.63 dB 4:03 09-All of My Life

DR9 -0.85 dB -10.77 dB 3:59 10-A Phase I'm Going Through

DR9 -0.86 dB -10.80 dB 3:59 11-Scarborough Stomp

DR9 -3.15 dB -14.56 dB 1:47 12-Butterfly and Zebra

DR9 -0.85 dB -11.39 dB 5:07 13-If There Is No Heaven

DR9 -0.84 dB -11.33 dB 4:45 14-Stars Race Across the Sky

DR8 -0.68 dB -9.47 dB 5:47 15-Goodbye Supernova

В HD издании 24 бит / 96 кГц формальные баллы динамического диапазона получились даже чуть-чуть ниже. Но это не означает, что CD будет звучать лучше. Поскольку мы видим, что уровни сигнала практически не менялись, то вероятно, при даунсемплинге в 16 бит из микса выдуло немного баса. В любом случае, выглядит картина динамического диапазона также уныло.

DR Peak RMS Duration Track

--------------------------------------------------------------------------------

DR8 -1.00 dB -10.47 dB 3:50 01-Shockwave Supernova

DR9 -1.00 dB -11.34 dB 4:13 02-Lost in a Memory

DR10 -1.00 dB -12.62 dB 3:37 03-Crazy Joey

DR9 -1.00 dB -11.50 dB 4:13 04-In My Pocket

DR8 -1.00 dB -10.02 dB 5:23 05-On Peregrine Wings

DR8 -1.00 dB -10.36 dB 5:03 06-Cataclysmic

DR9 -1.00 dB -11.47 dB 3:19 07-San Francisco Blue

DR9 -1.00 dB -11.67 dB 4:23 08-Keep on Movin'

DR8 -1.00 dB -10.63 dB 4:03 09-All of My Life

DR9 -1.00 dB -10.77 dB 3:59 10-A Phase I'm Going Through

DR9 -1.00 dB -10.79 dB 3:59 11-Scarborough Stomp

DR9 -3.15 dB -14.55 dB 1:47 12-Butterfly and Zebra

DR8 -1.00 dB -11.38 dB 5:07 13-If There Is No Heaven

DR8 -1.00 dB -11.33 dB 4:45 14-Stars Race Across the Sky

DR7 -1.00 dB -9.46 dB 5:47 15-Goodbye Supernova

--------------------------------------------------------------------------------

Зато в спектре все по-честному! Старался человек, пускал гармонику выше 20 кГц. Здесь мы видим ничем не ограниченную свободу поведения музыкального и немузыкального сигнала. По сравнению с CD-версией, впрочем, хайрез звучит не слишком отличимо. Виной тому особенности мастеринга и стремление издателей сделать «теплый слитный» микс с зализанными высокими частотами. Так они, вероятно, представляли себе саунд, избавленный от цифрового налета. Получилось так себе, на мой вкус, — гулко и мутновато.

Виниловый двойной пресс, как показывает спектрограмма, делался из файла с дискретизацией 44 кГц. Возможно, он и был 24 бит, но спектр ему все равно отчекрыжили. Это могло произойти если не в процессе даунсемплирования, то фильтром резака перед изготовлением лакового мастера, потому что ультразвуковые составляющие на нем нежелательны.

Зато теперь посмотрите на уровень сигнала и DR — другое дело! Уровни задирать не стали, пики убивать — тоже: альбом теперь не прет как бульдозер на одной громкости. Вот вам и залог приятного винилового звука. Тембрально звук с винила повторяет цифровые издания (хотя здесь и возможны отклонения за счет характера иглы/фонокорректора). Но при этом инструменты не тонут в одной каше; тарелочки, наконец, отделились. Почему нельзя виниловые мастера издавать в цифровом виде, ума не приложу.

DR Peak RMS Duration Track

--------------------------------------------------------------------------------

DR13 -2.20 dB -16.86 dB 3:51 01-Shockwave Supernova

DR12 -1.35 dB -16.70 dB 4:13 02-Lost In A Memory

DR14 -0.62 dB -17.35 dB 3:36 03-Crazy Joey

DR14 -0.44 dB -16.92 dB 4:14 04-In My Pocket

DR13 -1.95 dB -17.09 dB 5:22 05-On Peregrine Wings

DR14 -1.46 dB -17.07 dB 5:03 06-Cataclysmic

DR14 -0.58 dB -17.40 dB 3:19 07-San Francisco Blue

DR12 -1.76 dB -16.88 dB 4:22 08-Keep On Movin'

DR13 0.00 dB -15.34 dB 4:00 09-All Of My Life

DR13 0.00 dB -15.51 dB 3:59 10-A Phase I'm Going Through

DR13 0.00 dB -15.29 dB 4:02 11-Scarborough Stomp

DR8 -9.14 dB -20.01 dB 1:47 12-Butterfly And Zebra

DR13 -0.87 dB -16.34 dB 5:05 13-If There Is No Heaven

DR13 -1.48 dB -17.20 dB 4:43 14-Stars Race Across The Sky

DR14 -0.58 dB -16.84 dB 5:44 15-Goodbye Supernova

--------------------------------------------------------------------------------

ТЕГИ:#Joe Satriani
74.15 дБ +

Комментарии

#

Ярослав, спасибо за обзор. Подход к HD изданию разочаровал. Стоимость по сравнению с CD совершенно неоправданна в отличие от 2LPs.

- 56.02 дБ +
#

...и LP пишут с цифры,что тоже разочаровывает...

- 50 дБ +
#

Мало кто сейчас делает полностью аналоговые издания... Хотя в целом, хорошие новоделы встречаются.

- 53.01 дБ +
#

Исходник для LP и CD одинаков, вот только возможности реализации разные. Это как сделать копию картины качественным цветным сканером или дагеротипией. Ну и соответствующему "инструменту" и руки "прямые".

- 50 дБ +
#

Вот живешь себе и не в курсе, что у Satriani свежий альбом вышел... Впервые услышал его в машине на КВ "Голос Америки" в далеком 1989 г. с парой треков из тогда новенького "Flying In A Blue Dream", а спустя какое-то время в Питере подвернулся нулевый LP издания Food For Thought Records.

- 50 дБ +
#

Ну "свежий" он весьма относительно, полтора года уже прошло всё-таки. И если виртуоз не будет отходить от своей традиции, то новый альбом увидит свет в конце весны или в начале лета 2017 года. Я познакомился с ним на "Black Swans and Wormhole Wizards", хотя как потом оказалось слышал и даже разучивал его на классической гитаре до этого ("Tears in the Rain" с "The Extremist", например). С последнего альбома "If There Is No Heaven" больше всего понравилась, получилось атмосферно. Кстати, для любителей на днях будут концерты Paul Gilbert'а в Москве и Питере - заслуживающий внимания исполнитель этого же "жанра", если можно так его называть :-)

- 50 дБ +
#

Почему нет обзоров российских изданий?

- 50 дБ +
#

И каким образом вы определили, какое издание использовалось? ^_^

- 50 дБ +
#

я обозреваю альбомы, за которые проголосовало более прочих

(согласно демократической процедуре)

- 50 дБ +
#

Альбом и не прёт на одной громкости - громкость всё время меняется при игре инструментов в разных частях сцены.

- 50 дБ +
#

вы сравните графики динамики громкостей на цифровом и винилом мастеринге

- 50 дБ +
Чтобы оставить комментарий, войдите, пожалуйста.