Marcus Miller «Afrodeezia»: джаз на афродизиаках

Marcus Miller «Afrodeezia»: джаз на афродизиаках

Обычно все жалуются на плохой мастеринг в поп-индустрии, но можно ли испортить джаз-фанковый репертуар? Ответ утвердительный.

Сегодня в нашей рубрике, наконец, не переиздание чего-то ветхого, а вполне себе современный альбом. В 2015 году Маркус Миллер — человек-пароход с мандатом ООН — музыкально отрефлексировал свой опыт путешествий по Западной Африке, Южной Америке и Карибскому региону. Начнем с HD-версии, представленной лейблом Blue Note на ресурсе HD Tracks.

Сам альбом заявлен в 24 бит / 96 кГц, но издатели честно предупреждают, что половина материала, а именно треки 3, 4, 5, 8 и 11, были записаны с дискретностью 44,1 кГц и далее перенесены в общий мастер 24/96. Спектрограмма в полной мере подтверждает эту информацию.

Но все это не так уж и страшно: был бы сам мастеринг приличным, чего сказать, увы, нельзя. Весь альбом форсирован по громкости и выбрит под -0,2 дБ.

DR Peak RMS Duration Track

--------------------------------------------------------------------------------

DR7 -0.20 dB -9.37 dB 6:59 01-Hylife

DR9 -0.20 dB -11.24 dB 6:49 02-B's River

DR9 -0.20 dB -12.05 dB 5:46 03-Preacher’s Kid (Song For William H)

DR7 -0.20 dB -9.11 dB 6:49 04-We Were There

DR10 -0.20 dB -11.94 dB 6:07 05-Papa Was A Rolling Stone

DR9 -0.20 dB -12.15 dB 7:06 06-I Still Believe I Hear

DR7 -0.20 dB -9.27 dB 6:12 07-Son Of Macbeth

DR10 -0.20 dB -12.53 dB 0:30 08-Prism (Interlude)

DR10 -0.20 dB -12.63 dB 6:14 09-Xtraordinary

DR9 -0.20 dB -10.93 dB 7:28 10-Water Dancer

DR8 -0.20 dB -10.37 dB 5:09 11-I Can’t Breathe

--------------------------------------------------------------------------------

Afrodeezia выходил также на компакт-дисках, в том числе японскомиздании Victor, которое по уровням сигнала полностью повторяет оригинал Blue Note. Делу это мало помогло, более того, сигнал здесь порой упирается в клиппинг на 0 дБ. Непонятно, что заставило саунд-инженеров запереть джаз-фонограмму такой агрессивной компрессией — номинация на Грэмми?

DR Peak RMS Duration Track

--------------------------------------------------------------------------------

DR8 -0.04 dB -9.37 dB 6:59 01-Hylife

DR9 0.00 dB -11.25 dB 6:49 02-B's River

DR9 -0.14 dB -12.06 dB 5:46 03-Preacher's Kid (Song For William H)

DR7 -0.10 dB -9.11 dB 6:49 04-We Were There

DR10 -0.14 dB -11.94 dB 6:07 05-Papa Was A Rolling Stone

DR9 0.00 dB -12.13 dB 7:06 06-I Still Believe I Hear [feat. Ben Hong]

DR7 -0.03 dB -9.27 dB 6:12 07-Son Of Macbeth

DR10 -0.20 dB -12.54 dB 0:30 08-Prism (Interlude)

DR10 0.00 dB -12.63 dB 6:14 09-Xtraordinary

DR9 -0.01 dB -10.93 dB 7:28 10-Water Dancer

DR8 0.00 dB -10.37 dB 5:09 11-I Can't Breathe [feat. Mocean Worker]

В целом, стоит отметить, что качество Blue Note и издания Маркуса Миллера знавали и лучшие времена. Это не первый абсурдный случай, когда под «Hi-Res мастер-записью» продается адаптированная под затычки и радиовещание версия. Очень жаль, если эта тенденция закрепится и на другие, прежде аудиофильские, релизы.

70 дБ +

Комментарии

#
YG, спасибо, как всегда... Однако Вы подтвердили и мои опасения... Хотя... виниловая версия Blue Note звучит музыкально вполне, но едва ли делался аналоговый ремастер или пересведение под винил? Похоже первый релиз Маркуса на Blue Note специально не готовили...
- 50 дБ +
#

звучит, потому что громкость на виниле нельзя задрать - вот и весь секрет

ну и эквализацию под виниловый мастер тоже делают, это нельзя сбрасывать со счетов

- 50 дБ +
#

совершенно понятно почему аппаратура высокого уровня не хочет такое нормально воспроизводить.

- 50 дБ +
#
Маркус, прежде всего - гениальный басист (для меня)! Музыкально этот альбом один из лучших (для меня)! А далее - либо у меня аппаратура не того уровня, ибо она его нормально воспроизводит, что HD, что CD, что винил, либо... :)
- 50 дБ +
#

я лишь предположение написал. я не слушал. а имел в виду я жесткую компрессию. оно не может хорошо звучать, если так скомпрессировано. и чем выше класс аппаратуры, тем лучше это слышно. если найду где скачать, могу отписать реальные впечатления.

- 50 дБ +
#

Шикарный басист,советую в живую послушать,а записи разные есть..

- 50 дБ +
#

Дааа, он очень крут! Рада, что мой вариант победил в опросе. В следующий раз Патитуччи предложу :)

- 50 дБ +
#

Если вы про Маркуса, то да.. Я его в Чикаго слушал..

- 50 дБ +
#

Да-да, я про Маркуса.

Я его в Чикаго слушал..

А я дома ))) Но в записи )))

- 50 дБ +
#

Тогда при случае послушайте в живую..

- 50 дБ +
#

Какой кошмар :(

- 50 дБ +
#

DR9 это сильная зажатость?

- 50 дБ +
#

для семплированного материала с дискотечной бас-бочкой - нормально, но для живого исполнения все-таки маловато

да вы и сами видите на картинках, что пики обрезаны компрессором

- 50 дБ +
Чтобы оставить комментарий, войдите, пожалуйста.