High-End-записи 90-х: слушаем Patricia Barber «Café Blue»

High-End-записи 90-х: слушаем Patricia Barber «Café Blue»

Café Blue относится к излюбленному демо-материалу аудиосалонов. Эту вальяжную, сытую фонограмму решительно невозможно испортить! И все-таки в руках издателей Café Blue оказалось неисчерпаемым как фрактал.

Все началось как у людей — с обычного CD-издания 1994 года и закончилось предложением магнитной мастер-копии за баснословные деньги.

Начнем по порядку. Базовый компакт-диск, если не знать, что было потом, может вполне украсить аудиофильскую полочку. Динамический диапазон не зажат, жаловаться вроде не на что.

DR Peak RMS Duration Track

--------------------------------------------------------------------------------

DR14 -0.77 dB -19.34 dB 5:25 01-What A Shame

DR14 -0.03 dB -18.46 dB 6:59 02-Mourning Grace

DR13 -3.92 dB -21.66 dB 4:40 03-The Thrill is Gone

DR14 -3.09 dB -23.05 dB 4:28 04-Romanesque

DR17 -0.09 dB -20.09 dB 5:08 05-Yellow Car III

DR15 -4.13 dB -22.45 dB 0:58 06-Wood is a Pleasant Thing to Think About

DR13 -6.99 dB -23.90 dB 5:03 07-Inch Worm

DR18 -1.36 dB -24.19 dB 5:21 08-Ode to Billy Joe

DR10 -2.40 dB -16.74 dB 7:59 09-Too Rich for my Blood

DR17 -2.40 dB -23.20 dB 4:29 10-A Taste of Honey

DR13 -2.40 dB -20.18 dB 9:02 11-Nardis

DR19 -2.40 dB -23.96 dB 3:20 12-Manha de Carnaval

В 90-х годах HDCD-технология была первой попыткой вырваться за пределы ограничения 16-битной технологии Red Book — пускай и за счет незначительного добавления шума. На обложке HDCD-релиза по-прежнему значился 1994 год, но на самом деле новый трансфер был выполнен в 1997-м. Правда, будьте готовы, что знакомый порядок песен будет иным.

Работа HDCD-алгоритма обычно базируется на трех отключаемых опциях. Peak Extension и Low Level Extension отвечают за расширение динамического диапазона. Transient Filter указывает на использование собственно фильтра, но на процесс декодирования уже не влияет. Что касается Café Blue, то анализ показывает отсутствие Transient Filter, зато с HDCD-декодером минимальный уровень был понижен на 4 дБ, а разрешение увеличилось до 17 бит. Для современной звукозаписи этого приема определенно не хватает!

Анализ HDCD-опций, которые применялись для издания FIM CD 010

Динамический диапазон изменился. В формальных единицах по трекам он стал где-то больше, где-то меньше. Но даже если ваш цифровой источник не будет обладать HDCD-декодером, данный вариант отыграет более чисто и прозрачно. Очевидно, что при мастеринге CD-первопресса Premonition использовалось оборудование более низкого класса.

DR Peak RMS Duration Track

--------------------------------------------------------------------------------

DR13 -4.64 dB -21.63 dB 5:24 01-What A Shame

DR16 -4.49 dB -25.95 dB 4:31 02-A Taste Of Honey

DR13 -3.31 dB -21.25 dB 8:02 03-Too Rich For My Blood

DR13 -3.35 dB -22.21 dB 4:29 04-Romanesque

DR16 -3.67 dB -22.78 dB 5:09 05-Yellow Car III

DR14 -4.70 dB -21.44 dB 0:58 06-Wood is a Pleasant Thing to Think About

DR13 -5.15 dB -22.62 dB 5:06 07-Inch Worm

DR17 -3.68 dB -26.23 dB 5:23 08-Ode to Billy Joe

DR14 -4.28 dB -21.88 dB 7:02 09-Morning Grace

DR12 -4.68 dB -21.56 dB 4:42 10-The Thrill Is Gone

DR15 -3.22 dB -24.06 dB 9:02 11-Nardis

DR18 -3.23 dB -26.77 dB 3:20 12-Manha de Carnaval

Наш любимый лейбл взялся за Café Blue в 2002-м году. Гибридный SACD-диск можно воспроизводить и в обычных CD-плеерах. Примечательно, что CD-слой звучит сопоставимо с DSD-дорожкой и надо сказать — этому имеется документальное подтверждение. История гласит, что певица записывала альбом на цифровой 32-дорожечный рекордер Otari в разрешении 16 бит/48 кГц. Спектральный анализ DSD-слоя подтверждает, что исходником послужила цифровая PCM-дорожка, поэтому и существенной разницы по звуку между ним с CD-слоем не наблюдается. Динамический анализ CD-слоя показывает, что громкость пиков поднималась до 0 дБ.

DR Peak RMS Duration Track

--------------------------------------------------------------------------------

DR14 -0.39 dB -18.08 dB 5:26 01-What A Shame

DR15 0.00 dB -19.64 dB 7:01 02-Mourning Grace

DR13 -2.24 dB -19.86 dB 4:40 03-The Thrill Is Gone

DR14 -1.16 dB -21.17 dB 4:28 04-Romanesque

DR17 0.00 dB -19.63 dB 5:09 05-Yellow Car III

DR15 -2.65 dB -20.56 dB 0:59 06-Wood Is A Pleasant Thing To Think About

DR13 -2.99 dB -19.55 dB 5:07 07-Inch Worm

DR18 0.00 dB -22.41 dB 5:22 08-Ode To Billy Joe

DR12 0.00 dB -17.48 dB 8:00 09-Too Rich For My Blood

DR16 0.00 dB -21.08 dB 4:30 10-A Taste Of Honey

DR15 0.00 dB -20.50 dB 9:04 11-Nardis

DR19 0.00 dB -22.72 dB 3:20 12-Manha De Carnaval

--------------------------------------------------------------------------------

Спектральный анализ SACD-дорожки издания Mobile Fidelity Sound Lab

В ходе исследования выявился и другой любопытный технический артефакт — весь альбом «прошит» высокочастотной помехой в узкой области между 15 и 16 кГц. Вины издателей в этом нет — так было с самого начала еще на CD 1994 года. И как бы там ни было, результат от MSFL можно считать наилучшим. По сравнению с двумя предыдущими изданиями: инструменты, вокал — все прорисовано более рельефно.

В 2011 году альбом перелопатили еще раз, но на этот раз более кардинально — начиная со сведения. Теперь микс оставлен более сухим, без затянутых ревербераций, которые считались приличным тоном в 90-х. Этот вариант выходил только на LP, SACD, ну и на упомянутой в начале магнитной ленте. Была поставлена задача вернуть слушателям изначальный дух записи, не потревоженный студийными эффектами.

SACD-версию послушать не удалось, а что касается пластинки, то она оставила двойственное ощущение. Безусловно, фанаты этого альбома порадуются еще раз и в итоге оставят у себя оба варианта. Новое прочтение Café Blue уже больше похоже на демо. Какие-то детали здесь выделились и обрели живость, но концептуально в альбоме уже нет того лоска, который в итоге и обеспечил ему многочисленные награды.

74.47 дБ +

Комментарии

#
Ну наконец! Отличный тест любимой музыки! Спасибо Ярослав! Кстати я у себя тоже обратил внимание на качество звука Cd слоя на SACD! Но на моём тракте LP от QRP звучал музыкальнее, чем SACD MFSL...
- 50 дБ +
#

ну там уже вопрос не форматов, а другой манеры сведения

- 50 дБ +
#

Не зря говорят "меньше знаешь – спокойней спишь". Как ни почитаешь тесты записей, то каналы перепутают, то ВЧ шум по всей записи оставят, как хирурги перчатки в животе больного. Шучу, конечно. Спасибо, Ярослав, за статью. Даже не знаю теперь, стоит ли менять свой CD и гоняться за изданием от MFSL.

- 50 дБ +
#

Я бы погнался на Вашем месте - SACD превосходный!

- 50 дБ +
#

Гоняться то не за чем. На весь Ebay продают один SACD за $400. Пока слушаю HDCD. Если кто готов продать свой, то можно обсудить здесь.

- 50 дБ +
#

а по моим ссылкам лень было сходить? там же раздел вторички сразу

- 50 дБ +
#

0 дБ - это, как понимаю, точка клиппинга для audioCD?

- 50 дБ +
#

да, но если это верхняя точка пика, то не смертельно

- 50 дБ +
#

потрясающий альбом. спасибо.

- 50 дБ +
#

YG, что можете сказать по этой картинке?

- 50 дБ +
#

ну разные исходники были, что сказать.. )))

это сборник мумитроля?

сравните с альбомами откуда эти песни взяты

- 50 дБ +
#

сборник

не разбираюсь в этом, интересно как наши пишут

вот один альбом(с первым треком)

и переиздание


что лучше? =)


- 50 дБ +
#

на переиздании, как видите, не отрезали спектр, но надо еще посмотреть - меняли ли громкость оригинала

вам-то самому что больше нравится по звуку?

- 50 дБ +
#

сейчас нет возможности, завтра сравню отпишу

- 50 дБ +
#

в наушниках, встроенная звуковая карта:

переиздание звучит немного ярче/насыщенней/громче

в наушниках немного утомительно, думаю тут оригинал лучше

в колонках вечером послушаю, с хорошим цапом

- 50 дБ +
#

на колонках конечно лучше звучит переиздание

YG, так как Вам качество записи? Не хуже иностранцев?

- 50 дБ +
#

нет конечно! ))) не было же голосования по этому альбому

- 50 дБ +
#

у них нет sacd

"нет конечно" - наши хорошо пишут или плохо? :)

на слух мне наши записи очень нравятся, в том числе Мумий тролль

- 50 дБ +
#

да я просто не знаю, как они там пишут и что играют, извините меня

- 50 дБ +
#

Надо смотреть DR. спектр тут не особо показателен. при ремастерингах обычно ужимают динамический диапазон.

- 50 дБ +
#

Смотрим песню "Вдруг ушли поезда"

Морская 1997 первопресс:

Left Right

Peak Value: -1.82 dB --- -1.80 dB
Avg RMS: -14.08 dB --- -14.10 dB
DR channel: 10.42 dB --- 10.70 dB
--------------------------------------------------------------------------------

Official DR Value: DR11

Далее :

Морская (Переиздание 2008)

Left Right

Peak Value: -0.10 dB --- -0.10 dB
Avg RMS: -12.17 dB --- -12.27 dB
DR channel: 10.28 dB --- 10.45 dB
--------------------------------------------------------------------------------

Official DR Value: DR10

и наконец

2005 Grand Collection

эта-же песня

Left Right

Peak Value: -0.02 dB --- -0.08 dB
Avg RMS: -12.57 dB --- -12.59 dB
DR channel: 10.80 dB --- 10.82 dB
--------------------------------------------------------------------------------

Official DR Value: DR11

- 50 дБ +
#

ну подтянули громкость маленько

я не вижу какой-то драматичной компрессии в этих цифрах

проверьте диски утилитой audiochecker если сомневаетесь в их происхождении

- 50 дБ +
Чтобы оставить комментарий, войдите, пожалуйста.